#TITLE:Haru Haru;
#SUBTITLE:;
#ARTIST:Big Bang;
#TITLETRANSLIT:Haru Haru;
#SUBTITLETRANSLIT:;
#ARTISTTRANSLIT:Big Bang;
#CREDIT:Thu Tu , 10-12-2008;
#BANNER:Day After Day-bn.png;
#BACKGROUND:Day After Day-bg.png;
#LYRICSPATH:;
#CDTITLE:pm4cd.png;
#MUSIC:Day After Day.mp3;
#OFFSET:0.120;
#SAMPLESTART:76.360;
#SAMPLELENGTH:20.000;
#SELECTABLE:YES;
#BPMS:0.000=126.000;
#STOPS:;
#BGCHANGES:;
// cache tags:
#FIRSTBEAT:0.500;
#LASTBEAT:526.500;
#SONGFILENAME:Songs/Music V.I.P ^_^/Haru Haru/Day After Day.sm;
#HASMUSIC:1;
#HASBANNER:1;
#MUSICLENGTH:255.915;
// end cache tags

//---------------dance-single - ----------------
#NOTES:
     dance-single:
     :
     Hard:
     10:
     0.937,1.000,1.000,0.102,0.399,1239.000,365.000,26.000,0.000,28.000:
0000
0100
0010
0100
1000
0100
0001
0010
,
1000
0010
0001
1000
0010
0001
0010
0100
,
1000
0100
0010
0001
0010
0100
0010
0001
,
1000
0010
0001
1000
0010
0001
1000
0010
,
0001
0100
0010
0100
1000
0100
0010
0100
,
0010
0001
0010
0100
1000
0001
0100
0010
,
0001
0100
0010
0100
0001
0010
0100
0001
,
1000
0100
0001
1000
0100
0001
1000
0010
,
0001
0100
0010
0001
0010
0100
2000
0100
,
0010
0001
0010
0100
0010
0001
3200
0010
,
0001
1000
0010
1000
0001
1000
0301
0010
,
0100
0001
0010
0100
0001
0010
0100
0001
,
0010
1000
0100
0010
0001
0010
0200
0010
,
0001
1000
0010
0001
0010
0001
2300
0100
,
0010
0100
0010
0000
0001
0010
3002
0010
,
0100
0010
1000
0100
0010
1000
0113
0000
,
1100
0000
0000
0000
0011
0000
0000
0000
0110
0000
0110
0000
1111
0000
0010
0001
,
1100
0000
0010
0000
0101
0010
0100
0000
0110
0000
0001
0000
1001
0000
0100
0001
,
1100
0001
0010
1000
0101
0010
0001
0000
1100
0000
0100
0000
0011
0000
0001
0100
,
1010
0100
1000
0100
0011
0100
0010
0000
1100
0000
0010
0000
0110
0000
0001
0010
,
1001
0010
0100
1000
0110
1000
0100
1000
0011
0000
0010
0000
1010
0000
0100
0000
,
0011
1000
0101
0010
1001
0010
0110
1000
,
0101
0000
0001
0000
1100
0000
0100
0000
0101
0000
0001
0000
1001
0010
0001
0010
,
1100
0000
1000
0000
0110
1000
0001
0100
1001
0000
0010
0000
1100
0000
0100
0000
,
0101
0000
0010
0000
1010
0000
1000
0000
0110
0000
0100
0000
1111
0000
0100
1000
,
0011
0000
0100
0000
0101
0010
0001
0100
1010
0100
1000
0001
0110
0000
0001
0000
,
1100
0010
0101
1000
1001
0010
1100
0010
,
0101
0000
1000
0100
1001
0010
0001
0100
1010
0100
0001
1000
0110
0001
0010
0001
,
1100
0000
0001
0000
1010
0000
0100
0000
1001
0000
0010
0000
1100
0000
0010
0010
,
1001
0000
0100
1000
0011
1000
0100
0001
1010
0001
0010
0100
1100
0000
0001
0000
,
1010
0100
1001
1000
0011
0100
1001
0010
,
1010
0000
0100
0010
0011
0100
1000
0001
1100
0000
1001
0100
0101
0010
0002
0100
,
1000
0010
0000
0100
1000
0100
1013
0010
,
0100
0010
0001
0010
0100
0000
0010
0000
1000
0000
0100
0000
0010
0000
1000
0000
,
0010
1000
0100
0010
0001
0000
0100
0000
0010
0001
0100
1000
0001
0000
1000
0000
,
0100
0000
0001
0010
0100
0000
1000
0000
0100
0000
0010
0000
0001
0000
0100
0000
,
1000
0000
0010
0100
1000
0000
0001
0000
0010
0000
0100
0000
0010
0000
0100
0001
,
0000
0000
0010
0010
0100
0100
1000
0000
1000
0000
0010
0010
0001
0000
0010
0000
,
0010
0000
1000
1000
0100
0000
0001
0000
0001
0000
0010
0000
1111
0000
0001
0000
,
0010
0100
1111
0100
0010
1111
0000
0010
,
0100
0000
0010
0000
0001
0000
0010
0000
0100
0000
1000
0000
1111
0000
0001
0001
,
0110
0000
0100
0000
1100
0001
0010
0001
1010
0000
0100
0000
0101
0000
0001
0010
,
1100
0000
0001
0000
0110
1000
0100
0010
0101
0000
0010
0000
1010
0000
0010
0100
,
1001
0000
0010
0000
1100
0010
0001
0100
1010
0000
0010
0000
0110
0000
1000
1000
,
0101
0000
0010
0000
1100
0001
0010
0001
1010
0000
0101
0000
0110
0000
1000
0001
,
1010
0000
0100
0000
1001
0010
0100
0010
1100
0000
0100
0000
0101
0000
0010
0100
,
1001
0000
0100
0000
0011
0100
0001
0010
0101
0000
0100
0000
1100
0000
0001
0100
,
1010
0000
0100
0000
1100
0010
0001
0100
1001
0000
0100
0000
0011
0000
0100
0010
,
1100
0001
0110
0110
1001
1001
1111
0001
,
1111
0000
1000
0000
0101
0000
0010
0001
1100
0000
0100
0000
0101
1000
0010
0100
,
1001
0001
0110
0110
0011
0011
1111
0010
,
1111
0000
0100
0000
0011
0000
1000
0010
0101
0000
0010
0000
1001
0100
0010
0001
,
1100
0000
0100
0000
0101
0000
0010
0000
1001
0000
0110
0000
0011
0000
0100
0001
,
1010
0000
0100
0000
0011
0100
0001
0010
1100
0000
0100
0000
0110
0000
0001
0010
,
1001
0000
0010
0000
1100
0001
0010
1000
0101
0000
0010
0000
1100
0000
0001
0100
,
1001
0000
0010
0000
1010
0001
0100
1000
0011
0000
0100
0000
1001
0000
0110
0000
,
0110
0101
0101
1010
1010
0000
0002
0010
,
0100
1000
0100
0010
0100
1003
0000
0100
,
0010
0001
0010
0100
0010
0100
2000
0100
,
0010
0001
0010
0100
0010
3001
0000
0000
,
0000
0000
0100
0000
1000
0000
0100
0000
0010
0000
0001
0000
1110
0000
0001
1000
,
0110
0000
1000
0000
0101
1000
0010
0000
1100
0000
0100
0010
0101
0000
0010
0000
,
0011
1000
0110
0001
1100
0010
1001
0010
,
1010
0000
0100
0000
0101
0010
0001
0000
1100
0000
1000
0100
0011
0000
0100
0000
,
1001
0000
0010
0000
0110
0000
1000
0000
1100
0000
1001
0000
0110
0000
1000
0001
,
1010
0100
1001
0010
0101
0010
1100
0100
,
0101
0000
0010
0000
1010
0000
1000
0000
0101
0000
0001
0000
1001
0000
1000
0010
,
1100
0010
1010
0001
1100
0100
0101
0101
,
1001
0000
1001
0000
0110
0000
0000
0000
0100
0000
0001
0000
1111
0000
0010
0100
,
1010
0100
0001
0010
1100
0010
0001
0000
1010
0000
0100
0000
1001
0000
1000
1000
,
0101
0010
0001
0100
0011
0000
0100
0000
1001
0000
0010
0000
0110
0000
1000
0100
,
0011
0100
0001
1000
0110
1000
0001
0010
1010
0000
0100
0000
1001
0000
0100
0100
,
0011
0100
1000
0010
1001
0100
0010
0100
1010
0000
0100
0000
0110
0000
0001
0010
,
1001
0000
1000
0100
0011
0000
0100
0000
1001
0000
0100
0000
0011
0000
1000
0100
,
0110
0000
0001
0010
1010
0000
0100
0000
1001
0000
0100
0000
0011
0000
0110
0000
,
0011
0110
0011
0110
0011
0110
2000
0100
,
0010
0000
0001
0000
0100
0000
0010
0000
0111
0000
0100
3000
1111
0000
1000
0001
,
0110
0000
0100
0000
1100
0010
1000
0100
1010
0000
0100
0000
0101
0000
1000
0010
,
1100
0000
1000
0000
0110
0001
1000
0100
0101
0000
0010
0000
1010
0000
0010
0100
,
1001
0000
0010
0000
1100
0010
0001
0001
1010
0000
0010
0000
0110
0000
0010
0010
,
0101
0000
0010
0000
1100
0010
1000
1000
0110
0000
0110
0000
0011
0000
0001
0001
,
1010
0000
0100
0000
1001
0010
1000
0100
0011
0000
0100
0000
0101
0000
0001
0100
,
1001
0000
0100
0000
0011
1000
0001
0100
0101
0000
0100
0000
1100
0000
0001
0010
,
0110
0000
0100
0000
1100
0010
0100
1000
0101
0000
0100
0000
0011
0000
0010
0001
,
1100
0001
0110
0110
1001
1001
1111
0001
,
1111
0000
1000
0000
0101
0000
0010
0100
1100
0000
0100
0000
0011
0100
1000
0010
,
1001
0001
0110
0110
0011
0011
1111
0010
,
1111
0000
0100
0000
0011
0000
1000
0001
0101
0000
0010
0000
1001
0100
0001
0010
,
1100
0000
0100
0000
0101
0000
0010
0000
1001
0000
1001
0000
1010
0000
1000
0100
,
0011
0000
0100
0000
0011
1000
0100
0100
1001
0000
0100
0000
0110
0000
1000
0010
,
1001
0000
0100
0000
1100
0010
0100
0001
1010
0000
0010
0000
1100
0000
1000
0100
,
0101
0000
0010
0000
1010
0100
0010
0001
0110
0000
0100
0000
1001
0000
0110
0000
,
0110
0101
0101
1010
1010
1100
2000
0100
,
0010
0001
0010
0001
0100
0010
3200
0010
,
1000
0001
0010
1000
0010
0001
0320
0100
,
1000
0001
0100
0001
1000
0100
0032
0010
,
0100
1000
0010
0100
0010
1000
0203
0010
,
0001
1000
0010
0001
1000
0010
2300
0100
,
0010
0100
0001
0010
0001
0100
3020
0100
,
1000
0001
0100
0001
1000
0100
0032
0100
,
1000
0000
0010
0000
0100
0000
0010
0000
1000
0000
0100
0000
0023
0000
1000
0100
,
0001
0100
1000
0001
0100
0001
2030
0100
,
0001
0010
0001
0100
0001
0010
3200
0010
,
0001
1000
0010
1000
0001
0010
1300
0100
,
0010
0001
0001
0010
0010
0100
0200
0010
,
1000
0001
0010
0001
1000
0001
0320
1000
,
0100
0000
0001
0000
1000
0000
0001
0000
0100
0000
1000
0030
1111
0000
0010
0000
,
0100
1000
1111
0010
1111
0001
0000
1000
,
1000
0000
0000
0000
0100
0000
0010
0000
0001
0000
0010
0000
0100
0010
1000
0100
0001
1000
0010
0100
0001
1000
0010
0100
1011
0000
0000
0000
1000
0000
0010
0000
,
0110
0000
0100
0000
1100
0010
0010
0100
1010
0000
0100
0000
0101
0000
1000
0010
,
1100
0000
0001
0000
0110
0001
1000
0010
0101
0000
0010
0000
1010
0000
0100
0100
,
1001
0000
0010
0000
1100
0001
0010
1000
0101
0000
1000
0000
0110
0000
0001
1000
,
0101
0000
0010
0000
1100
0010
0100
0001
1010
0000
1010
0000
1100
0000
1000
1000
,
1010
0000
0100
0000
1001
0100
0001
0010
0110
0000
0100
0000
0101
0000
0001
0100
,
1010
0000
0100
0000
0011
0010
1000
0100
0101
0000
0100
0000
1100
0000
0010
0010
,
0011
0000
0100
0000
1010
0100
0001
1000
1001
0000
0100
0000
0011
0000
0011
0000
,
1100
1100
0110
0110
1001
1001
1111
0001
,
1111
0000
1000
0000
0101
0000
0100
0100
1100
0000
0010
0000
0101
0010
0001
1000
,
1100
0001
0110
0110
0011
0011
1111
0010
,
1111
0000
0100
0000
0011
0000
0001
0001
0101
0000
1010
0000
0000
0000
0011
0000
,
1100
0000
0100
0000
0101
0000
0010
0000
1100
0000
1100
0000
0011
0000
1000
1000
,
1100
0000
0100
0000
0011
0001
0010
0100
0101
0000
0100
0000
0110
0000
0001
0001
,
0011
0000
0100
0000
1100
0001
0010
0100
1010
0000
0010
0000
1100
0000
0001
0010
,
1001
0000
0010
0000
1010
0100
0010
1000
0011
0000
0100
0000
1001
0000
0110
0000
,
0110
0101
0101
1010
1010
0110
0020
0100
,
1000
0001
0100
1000
0100
0031
0000
0100
,
0100
1000
0010
0100
0010
0001
0020
0100
,
0001
1000
0100
1000
0001
0130
0000
0001
,
1000
0100
0010
0001
0010
0100
2000
0100
,
0010
0001
0100
0010
0100
3001
0000
0010
,
0100
0010
0001
0010
0100
0010
0002
0010
,
0100
0010
1000
0100
0010
0103
0000
0000
;

//---------------dance-single - ----------------
#NOTES:
     dance-single:
     :
     Medium:
     1:
     0.000,0.000,0.000,0.000,0.000,0.000,0.000,0.000,0.000,0.000:
0000
0000
0000
0000
;
